<?xml version="1.0" standalone="no"?>
<!DOCTYPE svg PUBLIC "-//W3C//DTD SVG 1.1//EN" "http://www.w3.org/Graphics/SVG/1.1/DTD/svg11.dtd">
<svg xmlns="http://www.w3.org/2000/svg">
<defs >
<font id="FiraSans" horiz-adv-x="539" ><font-face
    font-family="Fira Sans ExtraLight"
    units-per-em="1000"
    panose-1="2 11 4 3 5 0 0 2 0 4"
    ascent="935"
    descent="-265"
    alphabetic="0" />
<glyph unicode=" " glyph-name="space" horiz-adv-x="284" />
<glyph unicode="!" glyph-name="exclam" horiz-adv-x="240" d="M143 684L141 214H98L95 684H143ZM138 69T149 58T160 29Q160 12 149 1T120 -11Q103 -11 92 0T80 29Q80 46 91 57T120 69Q138 69 149 58Z" />
<glyph unicode="&quot;" glyph-name="quotedbl" horiz-adv-x="349" d="M82 436L75 684H124L117 436H82ZM232 436L225 684H274L267 436H232Z" />
<glyph unicode="#" glyph-name="numbersign" horiz-adv-x="498" d="M483 454H404L374 224H446V186H369L344 0H301L326 186H133L108 0H65L90 186H15V224H95L125 454H52V493H130L153 664H196L173 493H366L389 664H432L409 493H483V454ZM331 224L361 454H168L138 224H331Z" />
<glyph unicode="$" glyph-name="dollar" horiz-adv-x="524" d="M465 102T415 51T282 -9V-149H241V-11Q128 -8 44 71L72 101Q109 67 151 49T250 30Q325 30 371 70T418 179Q418 222 403 249T353 296T256 335Q154 367 112 406T70 513Q70 579 117 623T241 672V817H282V672Q332
669 370 652T445 601L416 571Q381 604 344 618T259 633Q195 633 156 601T117 514Q117 478 131 454T179 412T274 375Q341 354 382 331T444 271T465 180Q465 102 415 51Z" />
<glyph unicode="%" glyph-name="percent" horiz-adv-x="781" d="M609 701L644 678L181 -21L146 1L609 701ZM266 675T306 632T346 516Q346 442 307 398T201 354Q136 354 96 397T56 514Q56 587 95 631T201 675Q266 675 306 632ZM149 640T125 605T100 514Q100 460
125 425T201 390Q253 390 277 425T302 516Q302 570 277 605T201 640Q149 640 125 605ZM645 310T685 267T725 151Q725 77 686 33T580 -11Q516 -11 476 33T435 149Q435 222 474 266T580 310Q645 310 685 267ZM529 275T504 240T479 149Q479 95 504 60T580 25Q632 25
656 60T681 151Q681 205 657 240T580 275Q529 275 504 240Z" />
<glyph unicode="&amp;" glyph-name="ampersand" horiz-adv-x="719" d="M372 694T416 653T461 548Q461 491 424 450T304 363L519 162Q564 254 587 360L630 347Q601 226 547 134L676 16L640 -11L523 98Q481 46 428 18T298 -11Q241 -11 195 11T121 75T94 170Q94 235
130 281T239 369Q183 421 160 457T137 543Q137 608 182 651T301 694Q372 694 416 653ZM248 657T216 625T183 544Q183 517 190 497T216 452T276 390Q349 429 382 465T415 546Q415 598 383 627T301 657Q248 657 216 625ZM204 305T173 265T141 171Q141 108 186 69T301
29Q365 29 410 53T494 126L267 343Q204 305 173 265Z" />
<glyph unicode="&apos;" glyph-name="quotesingle" horiz-adv-x="199" d="M82 436L75 684H124L117 436H82Z" />
<glyph unicode="(" glyph-name="parenleft" horiz-adv-x="324" d="M265 815Q211 735 179 674T126 534T106 350Q106 247 126 168T178 26T265 -115L236 -135Q175 -50 140 12T82 158T59 350Q59 459 81 542T139 687T236 835L265 815Z" />
<glyph unicode=")" glyph-name="parenright" horiz-adv-x="324" d="M149 750T184 688T242 542T265 350Q265 241 243 158T185 13T88 -135L59 -115Q113 -36 145 26T198 167T218 350Q218 454 198 533T146 674T59 815L88 835Q149 750 184 688Z" />
<glyph unicode="*" glyph-name="asterisk" horiz-adv-x="435" d="M396 589L244 547L342 422L305 395L218 526L130 395L93 422L191 546L39 589L52 630L200 575L195 735H240L235 577L382 631L396 589Z" />
<glyph unicode="+" glyph-name="plus" horiz-adv-x="491" d="M268 504V351H419V310H268V157H223V310H72V351H223V504H268Z" />
<glyph unicode="," glyph-name="comma" horiz-adv-x="195" d="M115 69T126 58T138 29Q138 14 124 -20L72 -146H38L78 -5Q68 -1 63 8T57 29Q57 46 68 57T97 69Q115 69 126 58Z" />
<glyph unicode="-" glyph-name="hyphen" horiz-adv-x="400" d="M71 293V333H329V293H71Z" />
<glyph unicode="." glyph-name="period" horiz-adv-x="195" d="M115 69T126 58T138 29Q138 12 127 1T97 -11Q80 -11 69 0T57 29Q57 46 68 57T97 69Q115 69 126 58Z" />
<glyph unicode="/" glyph-name="slash" horiz-adv-x="520" d="M356 801L396 790L164 -98L124 -87L356 801Z" />
<glyph unicode="0" glyph-name="zero" horiz-adv-x="547" d="M373 675T425 588T477 331Q477 162 425 76T274 -11Q175 -11 123 76T70 333Q70 502 122 588T274 675Q373 675 425 588ZM198 636T158 561T118 333Q118 29 274 29Q429 29 429 331Q429 636 274 636Q198
636 158 561Z" />
<glyph unicode="1" glyph-name="one" horiz-adv-x="406" d="M281 664V0H235V612L68 507L46 542L242 664H281Z" />
<glyph unicode="2" glyph-name="two" horiz-adv-x="473" d="M305 675T353 627T401 503Q401 436 374 379T290 253T99 42H419L412 0H44V40Q183 189 243 261T328 386T353 500Q353 562 318 598T222 635Q174 635 137 616T69 558L36 582Q75 630 120 652T224 675Q305
675 353 627Z" />
<glyph unicode="3" glyph-name="three" horiz-adv-x="482" d="M301 675T349 629T398 510Q398 444 361 404T266 354Q331 352 373 308T416 186Q416 129 391 84T318 14T209 -11Q98 -11 22 74L52 100Q87 62 124 46T208 30Q283 30 325 72T368 185Q368 260 327 296T213
332H171L177 370H209Q268 370 309 405T351 508Q351 567 315 601T217 635Q174 635 138 620T66 572L41 601Q79 638 122 656T219 675Q301 675 349 629Z" />
<glyph unicode="4" glyph-name="four" horiz-adv-x="513" d="M476 218V178H385V0H340V178H47V214L251 675L290 659L96 218H340L345 418H385V218H476Z" />
<glyph unicode="5" glyph-name="five" horiz-adv-x="482" d="M400 624H127V386Q179 419 243 419Q329 419 379 365T429 214Q429 149 404 98T331 18T221 -11Q163 -11 119 9T36 68L67 96Q99 62 135 46T222 30Q295 30 338 80T381 215Q381 297 342 338T235 380Q200
380 175 372T119 346H82V664H408L400 624Z" />
<glyph unicode="6" glyph-name="six" horiz-adv-x="520" d="M368 431T417 378T466 223Q466 152 442 99T374 18T276 -11Q169 -11 120 73T70 295Q70 412 98 498T180 629T305 675Q341 675 369 666T424 637L403 604Q379 620 356 628T304 636Q219 636 170 551T117 328Q186
431 292 431Q368 431 417 378ZM345 29T382 82T419 222Q419 307 383 349T287 391Q234 391 191 361T117 276Q120 157 157 93T276 29Q345 29 382 82Z" />
<glyph unicode="7" glyph-name="seven" horiz-adv-x="434" d="M397 664V627L131 -7L87 8L348 624H32V664H397Z" />
<glyph unicode="8" glyph-name="eight" horiz-adv-x="533" d="M406 318T441 278T477 171Q477 116 450 75T375 12T265 -11Q202 -11 155 12T82 76T56 170Q56 237 94 284T204 358Q142 385 114 420T86 511Q86 562 111 599T177 655T267 675Q315 675 356 656T423 600T449
511Q449 458 420 421T327 350Q406 318 441 278ZM132 462T158 433T254 378L291 364Q350 395 376 428T402 509Q402 570 365 603T267 637Q208 637 170 604T132 510Q132 462 158 433ZM339 30T384 67T429 171Q429 213 414 240T368 288T280 329L244 343Q170 315 137 274T104
170Q104 103 148 67T266 30Q339 30 384 67Z" />
<glyph unicode="9" glyph-name="nine" horiz-adv-x="515" d="M353 675T402 605T451 404Q451 278 414 197T307 67T124 -18L112 18Q252 62 324 137T404 348Q373 301 330 276T235 250Q184 250 143 275T79 348T56 458Q56 524 81 573T152 648T254 675Q353 675 402 605ZM292
290T331 316T404 395Q404 517 369 576T255 636Q185 636 145 589T104 457Q104 378 141 334T242 290Q292 290 331 316Z" />
<glyph unicode=":" glyph-name="colon" horiz-adv-x="195" d="M115 69T126 58T138 29Q138 12 127 1T97 -11Q80 -11 69 0T57 29Q57 46 68 57T97 69Q115 69 126 58ZM115 467T126 456T138 427Q138 410 127 399T97 387Q80 387 69 398T57 427Q57 444 68 455T97 467Q115
467 126 456Z" />
<glyph unicode=";" glyph-name="semicolon" horiz-adv-x="195" d="M115 69T126 58T138 29Q138 14 124 -20L72 -146H38L78 -5Q68 -1 63 8T57 29Q57 46 68 57T97 69Q115 69 126 58ZM115 467T126 456T138 427Q138 410 127 399T97 387Q80 387 69 398T57 427Q57 444
68 455T97 467Q115 467 126 456Z" />
<glyph unicode="&lt;" glyph-name="less" horiz-adv-x="496" d="M410 521L427 482L113 333L427 181L410 142L69 313V353L410 521Z" />
<glyph unicode="=" glyph-name="equal" horiz-adv-x="491" d="M72 394V436H419V394H72ZM72 481V523H419V481H72Z" />
<glyph unicode="&gt;" glyph-name="greater" horiz-adv-x="496" d="M86 521L427 353V313L86 142L69 181L383 333L69 482L86 521Z" />
<glyph unicode="?" glyph-name="question" horiz-adv-x="443" d="M284 694T321 675T379 624T399 552Q399 517 387 492T356 450T307 411Q277 390 259 374T228 332T215 272V214H170V276Q170 318 184 347T217 394T269 435Q310 463 330 487T350 550Q350 597 318 625T231
654Q184 654 149 636T77 579L45 604Q85 650 130 672T233 694Q284 694 321 675ZM213 69T224 58T236 29Q236 12 225 1T195 -11Q178 -11 167 0T155 29Q155 46 166 57T195 69Q213 69 224 58Z" />
<glyph unicode="@" glyph-name="at" horiz-adv-x="1020" d="M655 694T746 642T883 501T930 308Q930 207 906 141T843 44T754 13Q706 13 675 44T635 124Q586 15 485 15Q438 15 401 40T341 115T319 232Q319 355 376 418T525 482Q594 482 666 446V189Q666 120 689
86T754 51Q811 51 847 110T883 306Q883 404 842 483T719 608T526 654Q411 654 323 600T186 451T137 239Q137 118 185 27T321 -113T525 -162Q579 -162 623 -154T713 -129L725 -167Q673 -185 629 -194T524 -203Q398 -203 300 -150T146 4T90 239Q90 366 145 470T299
634T526 694Q655 694 746 642ZM538 54T572 86T622 166V421Q576 444 526 444Q451 444 408 389T365 232Q365 145 399 100T490 54Q538 54 572 86Z" />
<glyph unicode="A" glyph-name="A" horiz-adv-x="562" d="M491 0L428 192H131L68 0H20L251 684H311L542 0H491ZM145 234H415L281 645L145 234Z" />
<glyph unicode="B" glyph-name="B" horiz-adv-x="594" d="M449 356T493 314T538 188Q538 96 476 48T300 0H115V684H264Q380 684 442 641T505 514Q505 449 472 411T380 363Q449 356 493 314ZM162 643V380H312Q377 380 416 415T456 511Q456 580 409 611T269 643H162ZM390
41T439 77T488 188Q488 264 442 302T318 340H162V41H301Q390 41 439 77Z" />
<glyph unicode="C" glyph-name="C" horiz-adv-x="547" d="M399 694T438 679T515 633L489 601Q453 629 421 641T347 653Q246 653 183 577T120 342Q120 240 149 171T229 67T344 32Q393 32 427 46T497 90L523 58Q447 -11 342 -11Q263 -11 202 30T105 150T70 342Q70
456 106 535T204 654T344 694Q399 694 438 679Z" />
<glyph unicode="D" glyph-name="D" horiz-adv-x="628" d="M386 684T472 612T558 348Q558 155 470 78T255 0H115V684H248Q386 684 472 612ZM162 643V41H258Q508 41 508 348Q508 468 472 533T380 621T251 643H162Z" />
<glyph unicode="E" glyph-name="E" horiz-adv-x="504" d="M454 684L448 643H162V377H409V336H162V41H460V0H115V684H454Z" />
<glyph unicode="F" glyph-name="F" horiz-adv-x="477" d="M115 0V684H448L442 643H162V364H404V324H162V0H115Z" />
<glyph unicode="G" glyph-name="G" horiz-adv-x="614" d="M407 694T448 679T533 629L504 598Q467 627 432 640T351 653Q291 653 239 621T153 520T120 345Q120 189 181 110T351 31Q394 31 429 40T499 68V324H361L355 365H546V44Q453 -11 351 -11Q266 -11 203 29T105
149T70 345Q70 458 109 537T213 655T351 694Q407 694 448 679Z" />
<glyph unicode="H" glyph-name="H" horiz-adv-x="667" d="M504 0V339H162V0H115V684H162V381H504V684H552V0H504Z" />
<glyph unicode="I" glyph-name="I" horiz-adv-x="277" d="M162 684V0H115V684H162Z" />
<glyph unicode="J" glyph-name="J" horiz-adv-x="286" d="M177 90Q177 32 164 -3T119 -64T29 -113L16 -78Q62 -57 86 -36T119 15T129 93V684H177V90Z" />
<glyph unicode="K" glyph-name="K" horiz-adv-x="533" d="M162 684V0H115V684H162ZM516 684L224 369L533 0H474L166 367L461 684H516Z" />
<glyph unicode="L" glyph-name="L" horiz-adv-x="470" d="M162 684V44H450L443 0H115V684H162Z" />
<glyph unicode="M" glyph-name="M" horiz-adv-x="768" d="M696 0H650L616 334Q597 509 587 638L407 82H361L175 638Q173 594 154 396Q153 377 149 339L117 0H72L139 684H206L385 139L559 684H627L696 0Z" />
<glyph unicode="N" glyph-name="N" horiz-adv-x="669" d="M554 0H493L154 631Q160 543 160 407V0H115V684H176L515 53Q509 152 509 253V684H554V0Z" />
<glyph unicode="O" glyph-name="O" horiz-adv-x="691" d="M428 694T490 654T586 534T621 341Q621 230 587 151T491 31T345 -11Q263 -11 201 30T105 150T70 340Q70 451 104 531T201 652T345 694Q428 694 490 654ZM241 653T181 574T120 340Q120 189 181 110T345
31Q452 31 511 109T571 341Q571 495 511 574T345 653Q241 653 181 574Z" />
<glyph unicode="P" glyph-name="P" horiz-adv-x="566" d="M389 684T453 634T517 481Q517 372 450 322T265 272H162V0H115V684H268Q389 684 453 634ZM362 312T414 350T467 480Q467 568 417 605T268 643H162V312H266Q362 312 414 350Z" />
<glyph unicode="Q" glyph-name="Q" horiz-adv-x="690" d="M568 16T643 -49L611 -89Q558 -43 499 -26T345 -9Q263 -9 201 31T105 150T70 340Q70 451 104 531T201 652T345 694Q428 694 490 654T586 534T621 341Q621 202 573 124T442 18Q568 16 643 -49ZM120 189T181
110T345 31Q452 31 511 109T571 341Q571 495 511 574T345 653Q241 653 181 574T120 340Q120 189 181 110Z" />
<glyph unicode="R" glyph-name="R" horiz-adv-x="584" d="M310 313H162V0H115V684H276Q513 684 513 501Q513 426 474 383T359 321L548 0H491L310 313ZM283 353Q463 353 463 501Q463 573 419 608T273 643H162V353H283Z" />
<glyph unicode="S" glyph-name="S" horiz-adv-x="537" d="M328 694T371 676T457 620L429 589Q390 623 353 638T267 653Q200 653 160 620T119 531Q119 493 134 468T184 424T282 386Q351 365 393 341T456 280T478 185Q478 128 451 83T373 14T258 -11Q192 -11 140
11T44 74L72 105Q113 68 156 50T257 31Q334 31 382 72T430 184Q430 228 414 256T363 305T263 346Q158 378 115 419T71 530Q71 577 95 614T164 672T266 694Q328 694 371 676Z" />
<glyph unicode="T" glyph-name="T" horiz-adv-x="487" d="M477 684L471 641H267V0H220V641H15V684H477Z" />
<glyph unicode="U" glyph-name="U" horiz-adv-x="648" d="M543 211Q543 110 488 50T324 -11Q216 -11 161 49T105 211V684H152V215Q152 128 194 80T324 32Q411 32 453 80T495 215V684H543V211Z" />
<glyph unicode="V" glyph-name="V" horiz-adv-x="543" d="M523 684L299 0H244L20 684H71L272 48L473 684H523Z" />
<glyph unicode="W" glyph-name="W" horiz-adv-x="804" d="M771 684L617 0H559L402 632L244 0H187L32 684H81L218 46L375 684H429L588 46L725 684H771Z" />
<glyph unicode="X" glyph-name="X" horiz-adv-x="505" d="M278 371L493 0H439L249 338L64 0H12L222 368L33 684H87L250 400L411 684H463L278 371Z" />
<glyph unicode="Y" glyph-name="Y" horiz-adv-x="513" d="M497 684L281 269V0H234V268L16 684H69L259 312L445 684H497Z" />
<glyph unicode="Z" glyph-name="Z" horiz-adv-x="514" d="M465 684V644L92 43H456L450 0H37V40L412 642H75V684H465Z" />
<glyph unicode="[" glyph-name="bracketleft" horiz-adv-x="315" d="M243 803V765H134V-73H243V-111H91V803H243Z" />
<glyph unicode="\" glyph-name="backslash" horiz-adv-x="520" d="M164 801L396 -87L355 -98L124 791L164 801Z" />
<glyph unicode="]" glyph-name="bracketright" horiz-adv-x="315" d="M224 803V-111H72V-73H181V765H72V803H224Z" />
<glyph unicode="^" glyph-name="asciicircum" horiz-adv-x="527" d="M282 830L465 527H412L264 781L116 527H62L245 830H282Z" />
<glyph unicode="_" glyph-name="underscore" horiz-adv-x="520" d="M33 -115V-73H488V-115H33Z" />
<glyph unicode="`" glyph-name="grave" horiz-adv-x="265" d="M51 776L235 676L220 648L30 732L51 776Z" />
<glyph unicode="a" glyph-name="a" horiz-adv-x="534" d="M425 69T435 50T469 22L458 -11Q424 -2 407 19T385 81Q328 -11 220 -11Q146 -11 103 31T60 145Q60 225 117 268T272 312H379V367Q379 432 350 462T254 492Q191 492 112 461L99 498Q186 532 258 532Q344
532 384 491T425 370V113Q425 69 435 50ZM327 28T379 127V276H279Q197 276 153 244T109 146Q109 90 140 59T226 28Q327 28 379 127Z" />
<glyph unicode="b" glyph-name="b" horiz-adv-x="576" d="M406 532T455 463T505 264Q505 136 454 63T309 -11Q260 -11 221 11T155 69L150 0H110V735L156 741V447Q221 532 316 532Q406 532 455 463ZM376 29T416 89T456 264Q456 379 419 436T309 493Q260 493 225
470T156 401V115Q183 75 220 52T302 29Q376 29 416 89Z" />
<glyph unicode="c" glyph-name="c" horiz-adv-x="466" d="M328 532T362 520T428 481L404 450Q378 471 351 481T287 492Q209 492 163 432T116 258Q116 146 162 88T286 30Q322 30 351 41T408 76L432 45Q370 -11 286 -11Q220 -11 171 21T94 113T67 258Q67 341 94
403T170 498T285 532Q328 532 362 520Z" />
<glyph unicode="d" glyph-name="d" horiz-adv-x="581" d="M471 735V0H431L426 82Q402 40 363 15T266 -11Q177 -11 125 61T72 259Q72 340 96 401T167 497T276 532Q368 532 425 459V741L471 735ZM325 29T360 55T425 133V410Q369 493 282 493Q209 493 165 432T120
262Q120 151 160 90T272 29Q325 29 360 55Z" />
<glyph unicode="e" glyph-name="e" horiz-adv-x="533" d="M471 261T469 241H115Q120 134 166 82T286 30Q328 30 360 42T428 83L451 53Q413 21 373 5T284 -11Q183 -11 125 60T67 257Q67 340 92 402T163 498T272 532Q369 532 420 465T471 282Q471 261 469 241ZM426
297Q426 388 388 440T274 493Q206 493 163 440T115 278H426V297Z" />
<glyph unicode="f" glyph-name="f" horiz-adv-x="316" d="M160 701T160 610V522H302L295 483H160V0H114V483H25V522H114V612Q114 672 151 706T253 741Q315 741 373 713L356 678Q304 701 255 701Q160 701 160 610Z" />
<glyph unicode="g" glyph-name="g" horiz-adv-x="497" d="M486 516Q441 502 344 501Q432 459 432 355Q432 278 382 232T247 185Q209 185 178 196Q157 185 146 168T134 132Q134 74 222 74H308Q383 74 427 39T471 -55Q471 -126 416 -164T251 -203Q137 -203 87 -169T36
-56H80Q81 -96 97 -119T149 -152T251 -163Q424 -163 424 -58Q424 -15 392 9T301 33H216Q155 33 122 58T89 123Q89 174 146 210Q101 233 80 269T59 358Q59 436 110 484T246 532Q344 531 386 538T471 562L486 516ZM177 495T142 458T106 358Q106 293 144 257T246 221Q313
221 349 256T385 356Q385 421 350 458T247 495Q177 495 142 458Z" />
<glyph unicode="h" glyph-name="h" horiz-adv-x="583" d="M405 532T441 490T478 372V0H432V366Q432 494 328 494Q275 494 234 465T156 381V0H110V735L156 741V430Q230 532 335 532Q405 532 441 490Z" />
<glyph unicode="i" glyph-name="i" horiz-adv-x="266" d="M156 522V0H110V522H156ZM149 744T159 734T169 709Q169 694 159 684T133 674Q117 674 107 684T97 709Q97 724 107 734T133 744Q149 744 159 734Z" />
<glyph unicode="j" glyph-name="j" horiz-adv-x="266" d="M156 14Q156 -52 142 -91T101 -153T25 -200L12 -167Q50 -148 70 -129T100 -77T110 13V522H156V14ZM149 744T159 734T169 709Q169 694 159 684T133 674Q117 674 107 684T97 709Q97 724 107 734T133 744Q149
744 159 734Z" />
<glyph unicode="k" glyph-name="k" horiz-adv-x="480" d="M156 741V0H110V735L156 741ZM445 522L217 287L469 0H413L162 285L391 522H445Z" />
<glyph unicode="l" glyph-name="l" horiz-adv-x="281" d="M151 -11T128 12T105 82V735L151 741V84Q151 30 196 30Q214 30 233 37L246 2Q218 -11 191 -11Q151 -11 128 12Z" />
<glyph unicode="m" glyph-name="m" horiz-adv-x="851" d="M676 532T711 490T746 372V0H700V366Q700 431 676 462T606 494Q560 494 522 465T451 381V0H405V366Q405 431 381 462T311 494Q265 494 227 465T156 381V0H110V522H150L154 430Q185 478 227 505T318 532Q368
532 401 504T446 425Q478 475 520 503T613 532Q676 532 711 490Z" />
<glyph unicode="n" glyph-name="n" horiz-adv-x="583" d="M406 532T442 491T478 372V0H432V366Q432 432 406 463T328 494Q275 494 234 465T156 381V0H110V522H150L154 429Q228 532 335 532Q406 532 442 491Z" />
<glyph unicode="o" glyph-name="o" horiz-adv-x="567" d="M386 532T443 462T500 263Q500 135 442 62T283 -11Q182 -11 125 61T67 260Q67 387 125 459T284 532Q386 532 443 462ZM205 492T160 433T115 260Q115 149 159 89T283 29Q362 29 407 89T452 263Q452 375
408 433T284 492Q205 492 160 433Z" />
<glyph unicode="p" glyph-name="p" horiz-adv-x="576" d="M409 532T457 463T505 264Q505 136 454 63T309 -11Q261 -11 222 10T156 65V-195L110 -203V522H150L153 443Q183 485 224 508T316 532Q409 532 457 463ZM377 30T416 89T456 264Q456 493 310 493Q261 493
225 469T156 401V114Q183 74 219 52T302 30Q377 30 416 89Z" />
<glyph unicode="q" glyph-name="q" horiz-adv-x="581" d="M471 522V-203L425 -195V79Q400 38 361 14T267 -11Q177 -11 125 61T72 259Q72 340 96 401T167 497T277 532Q329 532 365 511T427 457L431 522H471ZM326 29T361 54T425 131V411Q369 493 283 493Q209 493
165 432T120 262Q120 150 160 90T273 29Q326 29 361 54Z" />
<glyph unicode="r" glyph-name="r" horiz-adv-x="369" d="M337 532T355 526L346 483Q326 489 300 489Q245 489 212 450T156 326V0H110V522H150L153 401Q174 468 210 500T303 532Q337 532 355 526Z" />
<glyph unicode="s" glyph-name="s" horiz-adv-x="463" d="M280 532T318 518T395 475L372 444Q337 470 306 481T234 493Q179 493 145 468T111 398Q111 358 140 336T243 294Q333 270 371 237T409 138Q409 70 358 30T227 -11Q168 -11 125 6T44 56L70 86Q106 57 142
43T226 29Q286 29 323 57T361 137Q361 171 349 192T307 227T220 258Q136 280 100 312T64 398Q64 457 112 494T233 532Q280 532 318 518Z" />
<glyph unicode="t" glyph-name="t" horiz-adv-x="334" d="M338 21Q288 -11 230 -11Q173 -11 141 23T108 123V483H21V522H108V649L154 654V522H292L286 483H154V126Q154 30 235 30Q277 30 319 54L338 21Z" />
<glyph unicode="u" glyph-name="u" horiz-adv-x="578" d="M468 0H429L426 97Q365 -11 253 -11Q182 -11 144 30T105 149V522H151V153Q151 89 179 59T262 29Q358 29 422 141V522H468V0Z" />
<glyph unicode="v" glyph-name="v" horiz-adv-x="462" d="M445 522L264 0H206L17 522H68L235 40L395 522H445Z" />
<glyph unicode="w" glyph-name="w" horiz-adv-x="692" d="M664 522L534 0H472L347 478L222 0H161L27 522H76L193 38L321 522H375L503 37L619 522H664Z" />
<glyph unicode="x" glyph-name="x" horiz-adv-x="449" d="M252 280L437 0H382L223 250L65 0H12L196 278L36 522H90L225 307L360 522H413L252 280Z" />
<glyph unicode="y" glyph-name="y" horiz-adv-x="459" d="M261 -2Q240 -63 217 -100T156 -162T59 -201L53 -165Q104 -151 133 -132T180 -83T217 0H201L17 522H67L232 35L392 522H442L261 -2Z" />
<glyph unicode="z" glyph-name="z" horiz-adv-x="417" d="M382 522V485L84 41H379L374 0H29V36L328 481H53V522H382Z" />
<glyph unicode="{" glyph-name="braceleft" horiz-adv-x="327" d="M256 789Q211 789 192 770T172 707V449Q172 401 155 380T97 349Q137 339 154 319T172 249V-9Q172 -51 191 -70T256 -90V-127Q192 -127 161 -99T129 -10V257Q129 295 110 311T51 328V370Q90 370
109 386T129 442V709Q129 770 160 798T256 826V789Z" />
<glyph unicode="|" glyph-name="bar" horiz-adv-x="408" d="M226 803V-100H182V803H226Z" />
<glyph unicode="}" glyph-name="braceright" horiz-adv-x="327" d="M135 826T166 798T198 709V442Q198 403 218 387T276 370V328Q238 328 218 312T198 257V-10Q198 -71 167 -99T71 -127V-90Q116 -90 135 -71T155 -9V249Q155 298 172 318T231 349Q190 359 173 379T155
449V707Q155 750 136 769T71 789V826Q135 826 166 798Z" />
<glyph unicode="~" glyph-name="asciitilde" horiz-adv-x="466" d="M289 269T269 277T223 300Q199 313 185 319T156 325Q133 325 119 314T87 281L57 297Q78 330 101 348T159 366Q181 366 200 358T246 335Q269 322 283 316T312 310Q334 310 348 320T379 352L408
336Q388 304 366 287T310 269Q289 269 269 277Z" />
<glyph unicode="&#xa0;" glyph-name="uni00A0" horiz-adv-x="285" />
<glyph unicode="&#xa1;" glyph-name="exclamdown" horiz-adv-x="240" d="M138 468T149 457T160 428Q160 411 149 400T120 388Q102 388 91 399T80 428Q80 445 91 456T120 468Q138 468 149 457ZM142 250L145 -195H97L100 250H142Z" />
<glyph unicode="&#xa2;" glyph-name="cent" horiz-adv-x="466" d="M376 -4T305 -10V-149H264V-10Q173 -2 120 68T67 258Q67 377 120 450T265 531V679H305V531Q341 529 370 517T428 481L404 450Q378 471 351 481T287 492Q209 492 163 432T116 258Q116 146 162 88T286
30Q322 30 351 41T408 76L432 45Q376 -4 305 -10Z" />
<glyph unicode="&#xa3;" glyph-name="sterling" horiz-adv-x="505" d="M184 111T169 86T116 41H447L441 0H55V40Q102 62 120 86T138 158V335H73V371H138V502Q138 578 181 626T304 675Q354 675 391 658T460 603L429 577Q403 607 375 621T305 635Q247 635 216 599T184
501V371H400V335H184V159Q184 111 169 86Z" />
<glyph unicode="&#xa4;" glyph-name="currency" horiz-adv-x="560" d="M466 266T424 215L504 136L475 107L394 186Q346 151 280 151Q213 151 166 187L85 107L56 136L137 216Q96 268 96 341Q96 412 137 464L56 544L85 573L166 493Q214 530 280 530Q348 530 395
494L475 573L504 544L424 466Q466 415 466 341Q466 266 424 215ZM349 189T385 230T421 341Q421 410 385 451T281 492Q214 492 178 451T141 341Q141 272 177 231T281 189Q349 189 385 230Z" />
<glyph unicode="&#xa5;" glyph-name="yen" horiz-adv-x="503" d="M487 664L293 336H411V299H276V192H411V155H276V0H229V155H95V192H229V299H95V336H212L16 664H69L254 345L436 664H487Z" />
<glyph unicode="&#xa6;" glyph-name="brokenbar" horiz-adv-x="408" d="M226 803V443H182V803H226ZM226 262V-100H182V262H226Z" />
<glyph unicode="&#xa7;" glyph-name="section" horiz-adv-x="532" d="M394 146T407 123T420 66Q420 5 374 -31T253 -67Q205 -67 167 -56T92 -21L113 13Q175 -28 254 -28Q309 -28 341 -3T373 62Q373 89 364 106T328 139T249 172Q188 193 155 211T105 255T89 319Q89
391 169 445Q140 464 128 486T115 542Q115 602 160 638T274 674Q321 674 356 662T428 627L407 595Q375 616 344 625T274 635Q223 635 192 609T161 544Q161 517 171 500T210 467T293 433Q375 406 409 374T444 287Q444 214 366 164Q394 146 407 123ZM135 294T145
276T182 242T262 209Q309 193 336 180Q369 204 383 228T398 283Q398 311 389 329T354 364T277 398Q226 416 199 429Q135 383 135 323Q135 294 145 276Z" />
<glyph unicode="&#xa8;" glyph-name="dieresis" horiz-adv-x="309" d="M79 732T88 723T98 699Q98 685 89 676T64 666Q49 666 40 675T30 699Q30 713 39 722T64 732Q79 732 88 723ZM260 732T269 723T279 699Q279 685 270 676T246 666Q231 666 222 675T212 699Q212
713 221 722T246 732Q260 732 269 723Z" />
<glyph unicode="&#xa9;" glyph-name="copyright" horiz-adv-x="810" d="M487 732T553 694T658 589T696 435Q696 350 658 282T554 176T405 138Q323 138 257 176T152 281T114 435Q114 520 152 588T256 694T405 732Q487 732 553 694ZM334 697T276 664T186 571T153
435Q153 358 185 299T275 206T406 173Q478 173 535 206T624 299T657 435Q657 512 625 571T535 664T406 697Q334 697 276 664ZM436 612T458 604T503 580L483 552Q466 565 449 570T406 576Q366 576 336 543T306 436Q306 365 334 330T408 295Q434 295 453 302T492
323L510 295Q466 258 407 258Q343 258 304 305T264 436Q264 494 284 534T336 593T405 612Q436 612 458 604Z" />
<glyph unicode="&#xaa;" glyph-name="ordfeminine" horiz-adv-x="500" d="M337 520V557Q337 604 316 624T240 645Q191 645 128 623L116 658Q188 684 244 684Q316 684 349 654T383 561V371Q383 340 390 327T416 306L406 275Q379 281 364 296T344 339Q298 275 214
275Q153 275 119 306T84 392Q84 453 130 486T255 520H337ZM297 313T337 382V485H262Q132 485 132 394Q132 354 155 334T220 313Q297 313 337 382ZM84 42H431V0H84V42Z" />
<glyph unicode="&#xab;" glyph-name="guillemotleft" horiz-adv-x="548" d="M237 514L266 495L128 288L266 81L237 62L77 272V303L237 514ZM442 514L471 495L333 288L471 81L442 62L282 272V303L442 514Z" />
<glyph unicode="&#xac;" glyph-name="logicalnot" horiz-adv-x="499" d="M427 342V178H382V300H72V342H427Z" />
<glyph unicode="&#xad;" glyph-name="uni00AD" horiz-adv-x="400" d="M71 293V333H329V293H71Z" />
<glyph unicode="&#xae;" glyph-name="registered" horiz-adv-x="639" d="M384 732T438 702T523 618T555 499Q555 435 524 381T438 295T319 263Q254 263 201 293T116 377T84 496Q84 560 115 614T201 700T319 732Q384 732 438 702ZM374 295T420 322T493 395T520
499Q520 556 494 602T421 674T319 700Q264 700 219 673T146 599T119 496Q119 439 145 393T218 321T319 295Q374 295 420 322ZM415 500T353 484L427 366H382L316 479H276V366H239V636H305Q361 636 388 617T415 556Q415 500 353 484ZM276 510H318Q378 510 378 556Q378
583 362 594T311 605H276V510Z" />
<glyph unicode="&#xaf;" glyph-name="overscore" horiz-adv-x="289" d="M259 679H30V718H259V679Z" />
<glyph unicode="&#xb0;" glyph-name="degree" horiz-adv-x="520" d="M181 400T148 418T95 469T74 548Q74 591 94 624T148 676T219 694Q281 694 323 654T365 547Q365 481 323 441T219 400Q181 400 148 418ZM266 437T294 467T322 547Q322 598 294 627T219 657Q175
657 146 628T116 548Q116 498 145 468T219 437Q266 437 294 467Z" />
<glyph unicode="&#xb1;" glyph-name="plusminus" horiz-adv-x="491" d="M72 0V42H419V0H72ZM268 510V357H419V316H268V163H223V316H72V357H223V510H268Z" />
<glyph unicode="&#xb2;" glyph-name="uni00B2" horiz-adv-x="400" d="M253 741T285 710T318 631Q318 591 301 557T247 481T128 360H330L323 323H78V358Q165 445 204 489T258 563T274 628Q274 665 253 685T195 705Q139 705 100 660L70 681Q97 712 127 726T197 741Q253
741 285 710Z" />
<glyph unicode="&#xb3;" glyph-name="uni00B3" horiz-adv-x="400" d="M255 743T288 715T321 640Q321 600 298 575T236 543Q278 541 305 514T332 439Q332 384 294 350T192 315Q117 315 67 370L93 393Q135 351 190 351Q238 351 263 375T289 439Q289 523 194 523H166L171
557H191Q227 557 253 577T279 636Q279 670 257 689T198 708Q170 708 148 700T101 670L78 696Q106 720 134 731T200 743Q255 743 288 715Z" />
<glyph unicode="&#xb4;" glyph-name="acute" horiz-adv-x="265" d="M214 776L235 732L45 648L30 676L214 776Z" />
<glyph unicode="&#xb5;" glyph-name="uni00B5" horiz-adv-x="584" d="M452 -8Q440 22 435 46T426 107Q395 53 356 21T261 -11Q179 -11 147 57Q156 0 156 -74V-195L110 -200V522H156V148Q156 87 185 59T261 31Q359 31 420 155V522H466V176Q466 121 473 79T494 -3L452 -8Z" />
<glyph unicode="&#xb6;" glyph-name="paragraph" horiz-adv-x="699" d="M544 684V-195L501 -203V645H367V-195L324 -203V298Q209 302 157 354T105 491Q105 584 164 634T332 684H544Z" />
<glyph unicode="&#xb7;" glyph-name="middot" horiz-adv-x="195" d="M115 361T126 350T138 321Q138 304 127 293T97 281Q80 281 69 292T57 321Q57 338 68 349T97 361Q115 361 126 350Z" />
<glyph unicode="&#xb8;" glyph-name="cedilla" horiz-adv-x="235" d="M113 -67Q205 -74 205 -140Q205 -178 177 -200T106 -222Q63 -222 30 -202L46 -172Q74 -187 105 -187Q130 -187 146 -175T162 -140Q162 -117 141 -106T73 -95L82 16H113V-67Z" />
<glyph unicode="&#xb9;" glyph-name="uni00B9" horiz-adv-x="400" d="M252 736V323H211V689L106 628L87 658L218 736H252Z" />
<glyph unicode="&#xba;" glyph-name="ordmasculine" horiz-adv-x="500" d="M332 684T378 631T425 481Q425 385 378 330T248 275Q166 275 119 329T72 479Q72 574 120 629T249 684Q332 684 378 631ZM189 645T155 603T120 479Q120 399 154 356T249 313Q310 313 344
355T378 481Q378 562 345 603T250 645Q189 645 155 603ZM75 0V42H422V0H75Z" />
<glyph unicode="&#xbb;" glyph-name="guillemotright" d="M106 514L266 303V272L106 62L77 81L215 288L77 495L106 514ZM302 514L462 303V272L302 62L273 81L411 288L273 495L302 514Z" />
<glyph unicode="&#xbc;" glyph-name="onequarter" horiz-adv-x="908" d="M252 684V271H211V637L106 576L87 606L218 684H252ZM641 746L675 730L267 -68L233 -52L641 746ZM851 141V106H794V0H753V106H564V137L694 420L730 406L608 141H753L758 260H794V141H851Z" />
<glyph unicode="&#xbd;" glyph-name="onehalf" horiz-adv-x="908" d="M252 684V271H211V637L106 576L87 606L218 684H252ZM641 746L675 730L267 -68L233 -52L641 746ZM761 418T793 387T826 308Q826 268 809 234T755 158T636 37H838L831 0H586V35Q673 122 712 166T766
240T782 305Q782 342 761 362T703 382Q647 382 608 337L578 358Q605 389 635 403T705 418Q761 418 793 387Z" />
<glyph unicode="&#xbe;" glyph-name="threequarters" horiz-adv-x="908" d="M255 691T288 663T321 588Q321 548 298 523T236 491Q278 489 305 462T332 387Q332 332 294 298T192 263Q117 263 67 318L93 341Q135 299 190 299Q238 299 263 323T289 387Q289 471 194
471H166L171 505H191Q227 505 253 525T279 584Q279 618 257 637T198 656Q170 656 148 648T101 618L78 644Q106 668 134 679T200 691Q255 691 288 663ZM641 746L675 730L267 -68L233 -52L641 746ZM851 141V106H794V0H753V106H564V137L694 420L730 406L608 141H753L758
260H794V141H851Z" />
<glyph unicode="&#xbf;" glyph-name="questiondown" horiz-adv-x="443" d="M230 388T219 399T208 428Q208 445 219 456T248 468Q265 468 276 457T288 428Q288 411 277 400T248 388Q230 388 219 399ZM160 -203T123 -184T65 -134T45 -66Q45 -30 58 -4T90 40T140
78Q184 109 205 134T227 203V250H272V200Q272 162 259 136T227 92T176 52Q134 24 114 0T93 -65Q93 -108 126 -135T212 -163Q259 -163 295 -145T366 -88L399 -113Q358 -159 313 -181T211 -203Q160 -203 123 -184Z" />
<glyph unicode="&#xc0;" glyph-name="Agrave" horiz-adv-x="562" d="M491 0L428 192H131L68 0H20L251 684H311L542 0H491ZM145 234H415L281 645L145 234ZM197 880L380 788L367 759L175 836L197 880Z" />
<glyph unicode="&#xc1;" glyph-name="Aacute" horiz-adv-x="562" d="M491 0L428 192H131L68 0H20L251 684H311L542 0H491ZM145 234H415L281 645L145 234ZM362 880L383 836L191 759L178 788L362 880Z" />
<glyph unicode="&#xc2;" glyph-name="Acircumflex" horiz-adv-x="562" d="M491 0L428 192H131L68 0H20L251 684H311L542 0H491ZM145 234H415L281 645L145 234ZM160 763L139 788L267 887H294L421 788L400 763L281 843L160 763Z" />
<glyph unicode="&#xc3;" glyph-name="Atilde" horiz-adv-x="562" d="M491 0L428 192H131L68 0H20L251 684H311L542 0H491ZM145 234H415L281 645L145 234ZM321 796T305 802T269 821Q239 840 222 840Q205 840 193 832T165 803L136 818Q173 878 222 878Q237 878 250
873T283 855Q301 845 313 840T339 834Q355 834 367 843T396 877L425 862Q393 796 339 796Q321 796 305 802Z" />
<glyph unicode="&#xc4;" glyph-name="Adieresis" horiz-adv-x="562" d="M491 0L428 192H131L68 0H20L251 684H311L542 0H491ZM145 234H415L281 645L145 234ZM205 858T214 849T224 825Q224 811 215 802T190 792Q175 792 166 801T156 825Q156 839 165 848T190 858Q205
858 214 849ZM386 858T395 849T405 825Q405 811 396 802T372 792Q357 792 348 801T338 825Q338 839 347 848T372 858Q386 858 395 849Z" />
<glyph unicode="&#xc5;" glyph-name="Aring" horiz-adv-x="562" d="M491 0L428 192H131L68 0H20L251 684H311L542 0H491ZM145 234H415L281 645L145 234ZM322 941T348 917T374 852Q374 812 348 787T281 762Q240 762 214 787T188 852Q188 892 214 916T281 941Q322
941 348 917ZM254 911T240 896T225 852Q225 824 239 809T281 793Q308 793 322 808T337 852Q337 880 323 895T281 911Q254 911 240 896Z" />
<glyph unicode="&#xc6;" glyph-name="AE" horiz-adv-x="772" d="M499 41H729V0H462L414 188H123L52 0H4L269 684H679L673 643H343L412 377H671V336H423L499 41ZM139 229H404L297 646L139 229Z" />
<glyph unicode="&#xc7;" glyph-name="Ccedilla" horiz-adv-x="547" d="M444 -74T444 -140Q444 -178 416 -200T345 -222Q302 -222 269 -202L285 -172Q313 -187 344 -187Q369 -187 385 -175T401 -140Q401 -117 380 -106T312 -95L319 -10Q246 -4 190 38T102 158T70
342Q70 456 106 535T204 654T344 694Q399 694 438 679T515 633L489 601Q453 629 421 641T347 653Q246 653 183 577T120 342Q120 240 149 171T229 67T344 32Q393 32 427 46T497 90L523 58Q449 -8 352 -11V-67Q444 -74 444 -140Z" />
<glyph unicode="&#xc8;" glyph-name="Egrave" horiz-adv-x="504" d="M454 684L448 643H162V377H409V336H162V41H460V0H115V684H454ZM205 880L388 788L375 759L183 836L205 880Z" />
<glyph unicode="&#xc9;" glyph-name="Eacute" horiz-adv-x="504" d="M454 684L448 643H162V377H409V336H162V41H460V0H115V684H454ZM370 880L391 836L199 759L186 788L370 880Z" />
<glyph unicode="&#xca;" glyph-name="Ecircumflex" horiz-adv-x="504" d="M454 684L448 643H162V377H409V336H162V41H460V0H115V684H454ZM168 763L147 788L275 887H302L429 788L408 763L289 843L168 763Z" />
<glyph unicode="&#xcb;" glyph-name="Edieresis" horiz-adv-x="504" d="M454 684L448 643H162V377H409V336H162V41H460V0H115V684H454ZM213 858T222 849T232 825Q232 811 223 802T198 792Q183 792 174 801T164 825Q164 839 173 848T198 858Q213 858 222 849ZM394
858T403 849T413 825Q413 811 404 802T380 792Q365 792 356 801T346 825Q346 839 355 848T380 858Q394 858 403 849Z" />
<glyph unicode="&#xcc;" glyph-name="Igrave" horiz-adv-x="277" d="M162 684V0H115V684H162ZM54 880L237 788L224 759L32 836L54 880Z" />
<glyph unicode="&#xcd;" glyph-name="Iacute" horiz-adv-x="277" d="M162 684V0H115V684H162ZM219 880L240 836L48 759L35 788L219 880Z" />
<glyph unicode="&#xce;" glyph-name="Icircumflex" horiz-adv-x="277" d="M162 684V0H115V684H162ZM17 763L-4 788L124 887H151L278 788L257 763L138 843L17 763Z" />
<glyph unicode="&#xcf;" glyph-name="Idieresis" horiz-adv-x="277" d="M162 684V0H115V684H162ZM62 858T71 849T81 825Q81 811 72 802T47 792Q32 792 23 801T13 825Q13 839 22 848T47 858Q62 858 71 849ZM243 858T252 849T262 825Q262 811 253 802T229 792Q214
792 205 801T195 825Q195 839 204 848T229 858Q243 858 252 849Z" />
<glyph unicode="&#xd0;" glyph-name="Eth" horiz-adv-x="630" d="M388 684T474 612T560 348Q560 155 472 78T257 0H117V332H24V372H117V684H250Q388 684 474 612ZM510 41T510 348Q510 468 474 533T382 621T253 643H164V372H346V332H164V41H260Q510 41 510 348Z" />
<glyph unicode="&#xd1;" glyph-name="Ntilde" horiz-adv-x="669" d="M554 0H493L154 631Q160 543 160 407V0H115V684H176L515 53Q509 152 509 253V684H554V0ZM383 796T367 802T331 821Q301 840 284 840Q267 840 255 832T227 803L198 818Q235 878 284 878Q299 878
312 873T345 855Q363 845 375 840T401 834Q417 834 429 843T458 877L487 862Q455 796 401 796Q383 796 367 802Z" />
<glyph unicode="&#xd2;" glyph-name="Ograve" horiz-adv-x="691" d="M428 694T490 654T586 534T621 341Q621 230 587 151T491 31T345 -11Q263 -11 201 30T105 150T70 340Q70 451 104 531T201 652T345 694Q428 694 490 654ZM241 653T181 574T120 340Q120 189 181
110T345 31Q452 31 511 109T571 341Q571 495 511 574T345 653Q241 653 181 574ZM261 880L444 788L431 759L239 836L261 880Z" />
<glyph unicode="&#xd3;" glyph-name="Oacute" horiz-adv-x="691" d="M428 694T490 654T586 534T621 341Q621 230 587 151T491 31T345 -11Q263 -11 201 30T105 150T70 340Q70 451 104 531T201 652T345 694Q428 694 490 654ZM241 653T181 574T120 340Q120 189 181
110T345 31Q452 31 511 109T571 341Q571 495 511 574T345 653Q241 653 181 574ZM426 880L447 836L255 759L242 788L426 880Z" />
<glyph unicode="&#xd4;" glyph-name="Ocircumflex" horiz-adv-x="691" d="M428 694T490 654T586 534T621 341Q621 230 587 151T491 31T345 -11Q263 -11 201 30T105 150T70 340Q70 451 104 531T201 652T345 694Q428 694 490 654ZM241 653T181 574T120 340Q120 189
181 110T345 31Q452 31 511 109T571 341Q571 495 511 574T345 653Q241 653 181 574ZM224 763L203 788L331 887H358L485 788L464 763L345 843L224 763Z" />
<glyph unicode="&#xd5;" glyph-name="Otilde" horiz-adv-x="691" d="M428 694T490 654T586 534T621 341Q621 230 587 151T491 31T345 -11Q263 -11 201 30T105 150T70 340Q70 451 104 531T201 652T345 694Q428 694 490 654ZM241 653T181 574T120 340Q120 189 181
110T345 31Q452 31 511 109T571 341Q571 495 511 574T345 653Q241 653 181 574ZM385 796T369 802T333 821Q303 840 286 840Q269 840 257 832T229 803L200 818Q237 878 286 878Q301 878 314 873T347 855Q365 845 377 840T403 834Q419 834 431 843T460 877L489 862Q457
796 403 796Q385 796 369 802Z" />
<glyph unicode="&#xd6;" glyph-name="Odieresis" horiz-adv-x="691" d="M428 694T490 654T586 534T621 341Q621 230 587 151T491 31T345 -11Q263 -11 201 30T105 150T70 340Q70 451 104 531T201 652T345 694Q428 694 490 654ZM241 653T181 574T120 340Q120 189
181 110T345 31Q452 31 511 109T571 341Q571 495 511 574T345 653Q241 653 181 574ZM269 858T278 849T288 825Q288 811 279 802T254 792Q239 792 230 801T220 825Q220 839 229 848T254 858Q269 858 278 849ZM450 858T459 849T469 825Q469 811 460 802T436 792Q421
792 412 801T402 825Q402 839 411 848T436 858Q450 858 459 849Z" />
<glyph unicode="&#xd7;" glyph-name="multiply" horiz-adv-x="491" d="M371 466L402 436L275 308L402 178L371 149L246 279L120 149L89 178L214 306L89 436L120 466L244 335L371 466Z" />
<glyph unicode="&#xd8;" glyph-name="Oslash" horiz-adv-x="691" d="M537 634T579 551T621 341Q621 230 587 151T491 31T345 -11Q302 -11 264 1L231 -117L188 -105L226 15Q152 52 111 135T70 340Q70 451 104 531T201 652T345 694Q386 694 424 683L459 807L502
795L462 669Q537 634 579 551ZM120 230T152 159T242 56L415 643Q385 653 345 653Q241 653 181 574T120 340Q120 230 152 159ZM452 31T511 109T571 341Q571 454 539 526T447 630L273 42Q308 31 345 31Q452 31 511 109Z" />
<glyph unicode="&#xd9;" glyph-name="Ugrave" horiz-adv-x="648" d="M543 211Q543 110 488 50T324 -11Q216 -11 161 49T105 211V684H152V215Q152 128 194 80T324 32Q411 32 453 80T495 215V684H543V211ZM240 880L423 788L410 759L218 836L240 880Z" />
<glyph unicode="&#xda;" glyph-name="Uacute" horiz-adv-x="648" d="M543 211Q543 110 488 50T324 -11Q216 -11 161 49T105 211V684H152V215Q152 128 194 80T324 32Q411 32 453 80T495 215V684H543V211ZM405 880L426 836L234 759L221 788L405 880Z" />
<glyph unicode="&#xdb;" glyph-name="Ucircumflex" horiz-adv-x="648" d="M543 211Q543 110 488 50T324 -11Q216 -11 161 49T105 211V684H152V215Q152 128 194 80T324 32Q411 32 453 80T495 215V684H543V211ZM203 763L182 788L310 887H337L464 788L443 763L324
843L203 763Z" />
<glyph unicode="&#xdc;" glyph-name="Udieresis" horiz-adv-x="648" d="M543 211Q543 110 488 50T324 -11Q216 -11 161 49T105 211V684H152V215Q152 128 194 80T324 32Q411 32 453 80T495 215V684H543V211ZM248 858T257 849T267 825Q267 811 258 802T233 792Q218
792 209 801T199 825Q199 839 208 848T233 858Q248 858 257 849ZM429 858T438 849T448 825Q448 811 439 802T415 792Q400 792 391 801T381 825Q381 839 390 848T415 858Q429 858 438 849Z" />
<glyph unicode="&#xdd;" glyph-name="Yacute" horiz-adv-x="513" d="M497 684L281 269V0H234V268L16 684H69L259 312L445 684H497ZM337 880L358 836L166 759L153 788L337 880Z" />
<glyph unicode="&#xde;" glyph-name="Thorn" horiz-adv-x="566" d="M517 560T517 356Q517 243 450 192T265 140H162V0H115V684H162V560H268Q517 560 517 356ZM362 180T414 219T467 355Q467 443 417 481T268 519H162V180H266Q362 180 414 219Z" />
<glyph unicode="&#xdf;" glyph-name="germandbls" horiz-adv-x="578" d="M363 741T407 704T452 609Q452 569 434 545T382 492Q356 471 345 457T333 423Q333 399 350 382T405 339Q444 312 468 291T509 235T527 153Q527 79 484 34T370 -11Q317 -11 275 12L291 45Q308
37 325 33T367 29Q418 29 449 61T480 153Q480 193 465 221T428 269T372 311Q329 341 309 363T288 421Q288 448 301 465T344 508Q374 531 390 553T406 608Q406 651 375 676T293 702Q230 702 193 661T156 538V0H110V540Q110 636 160 688T293 741Q363 741 407 704Z"
/>
<glyph unicode="&#xe0;" glyph-name="agrave" horiz-adv-x="534" d="M425 69T435 50T469 22L458 -11Q424 -2 407 19T385 81Q328 -11 220 -11Q146 -11 103 31T60 145Q60 225 117 268T272 312H379V367Q379 432 350 462T254 492Q191 492 112 461L99 498Q186 532 258
532Q344 532 384 491T425 370V113Q425 69 435 50ZM327 28T379 127V276H279Q197 276 153 244T109 146Q109 90 140 59T226 28Q327 28 379 127ZM178 776L362 676L347 648L157 732L178 776Z" />
<glyph unicode="&#xe1;" glyph-name="aacute" horiz-adv-x="534" d="M425 69T435 50T469 22L458 -11Q424 -2 407 19T385 81Q328 -11 220 -11Q146 -11 103 31T60 145Q60 225 117 268T272 312H379V367Q379 432 350 462T254 492Q191 492 112 461L99 498Q186 532 258
532Q344 532 384 491T425 370V113Q425 69 435 50ZM327 28T379 127V276H279Q197 276 153 244T109 146Q109 90 140 59T226 28Q327 28 379 127ZM331 776L352 732L162 648L147 676L331 776Z" />
<glyph unicode="&#xe2;" glyph-name="acircumflex" horiz-adv-x="534" d="M425 69T435 50T469 22L458 -11Q424 -2 407 19T385 81Q328 -11 220 -11Q146 -11 103 31T60 145Q60 225 117 268T272 312H379V367Q379 432 350 462T254 492Q191 492 112 461L99 498Q186
532 258 532Q344 532 384 491T425 370V113Q425 69 435 50ZM327 28T379 127V276H279Q197 276 153 244T109 146Q109 90 140 59T226 28Q327 28 379 127ZM136 647L115 672L242 775H269L397 672L376 647L256 731L136 647Z" />
<glyph unicode="&#xe3;" glyph-name="atilde" horiz-adv-x="534" d="M425 69T435 50T469 22L458 -11Q424 -2 407 19T385 81Q328 -11 220 -11Q146 -11 103 31T60 145Q60 225 117 268T272 312H379V367Q379 432 350 462T254 492Q191 492 112 461L99 498Q186 532 258
532Q344 532 384 491T425 370V113Q425 69 435 50ZM327 28T379 127V276H279Q197 276 153 244T109 146Q109 90 140 59T226 28Q327 28 379 127ZM297 670T281 676T245 695Q215 714 198 714Q181 714 169 706T141 677L112 692Q149 752 198 752Q213 752 226 747T259 729Q277
719 289 714T315 708Q331 708 343 717T372 751L401 736Q369 670 315 670Q297 670 281 676Z" />
<glyph unicode="&#xe4;" glyph-name="adieresis" horiz-adv-x="534" d="M425 69T435 50T469 22L458 -11Q424 -2 407 19T385 81Q328 -11 220 -11Q146 -11 103 31T60 145Q60 225 117 268T272 312H379V367Q379 432 350 462T254 492Q191 492 112 461L99 498Q186 532
258 532Q344 532 384 491T425 370V113Q425 69 435 50ZM327 28T379 127V276H279Q197 276 153 244T109 146Q109 90 140 59T226 28Q327 28 379 127ZM181 732T190 723T200 699Q200 685 191 676T166 666Q151 666 142 675T132 699Q132 713 141 722T166 732Q181 732 190
723ZM362 732T371 723T381 699Q381 685 372 676T348 666Q333 666 324 675T314 699Q314 713 323 722T348 732Q362 732 371 723Z" />
<glyph unicode="&#xe5;" glyph-name="aring" horiz-adv-x="534" d="M425 69T435 50T469 22L458 -11Q424 -2 407 19T385 81Q328 -11 220 -11Q146 -11 103 31T60 145Q60 225 117 268T272 312H379V367Q379 432 350 462T254 492Q191 492 112 461L99 498Q186 532 258
532Q344 532 384 491T425 370V113Q425 69 435 50ZM327 28T379 127V276H279Q197 276 153 244T109 146Q109 90 140 59T226 28Q327 28 379 127ZM298 815T324 791T350 726Q350 686 324 661T257 636Q216 636 190 661T164 726Q164 766 190 790T257 815Q298 815 324 791ZM230
785T216 770T201 726Q201 698 215 683T257 667Q284 667 298 682T313 726Q313 754 299 769T257 785Q230 785 216 770Z" />
<glyph unicode="&#xe6;" glyph-name="ae" horiz-adv-x="846" d="M784 261T782 241H428Q433 134 479 82T599 30Q641 30 673 42T741 83L764 53Q726 21 686 5T597 -11Q534 -11 487 18T412 101Q370 41 325 15T221 -11Q146 -11 103 31T60 145Q60 225 117 269T273 313H380V367Q380
432 351 462T255 492Q192 492 113 461L100 498Q185 532 259 532Q328 532 366 505T419 423Q473 532 589 532Q684 532 734 465T784 282Q784 261 782 241ZM739 297Q739 388 701 440T589 493Q520 493 476 440T428 278H739V297ZM278 28T318 54T397 139Q380 192 380 256V276H280Q198
276 154 244T110 146Q110 90 141 59T227 28Q278 28 318 54Z" />
<glyph unicode="&#xe7;" glyph-name="ccedilla" horiz-adv-x="466" d="M387 -74T387 -140Q387 -178 359 -200T288 -222Q245 -222 212 -202L228 -172Q256 -187 287 -187Q312 -187 328 -175T344 -140Q344 -117 323 -106T255 -95L262 -10Q172 -1 120 69T67 258Q67
341 94 403T170 498T285 532Q328 532 362 520T428 481L404 450Q378 471 351 481T287 492Q209 492 163 432T116 258Q116 146 162 88T286 30Q322 30 351 41T408 76L432 45Q372 -8 295 -11V-67Q387 -74 387 -140Z" />
<glyph unicode="&#xe8;" glyph-name="egrave" horiz-adv-x="533" d="M471 261T469 241H115Q120 134 166 82T286 30Q328 30 360 42T428 83L451 53Q413 21 373 5T284 -11Q183 -11 125 60T67 257Q67 340 92 402T163 498T272 532Q369 532 420 465T471 282Q471 261
469 241ZM426 297Q426 388 388 440T274 493Q206 493 163 440T115 278H426V297ZM196 776L380 676L365 648L175 732L196 776Z" />
<glyph unicode="&#xe9;" glyph-name="eacute" horiz-adv-x="533" d="M471 261T469 241H115Q120 134 166 82T286 30Q328 30 360 42T428 83L451 53Q413 21 373 5T284 -11Q183 -11 125 60T67 257Q67 340 92 402T163 498T272 532Q369 532 420 465T471 282Q471 261
469 241ZM426 297Q426 388 388 440T274 493Q206 493 163 440T115 278H426V297ZM349 776L370 732L180 648L165 676L349 776Z" />
<glyph unicode="&#xea;" glyph-name="ecircumflex" horiz-adv-x="533" d="M471 261T469 241H115Q120 134 166 82T286 30Q328 30 360 42T428 83L451 53Q413 21 373 5T284 -11Q183 -11 125 60T67 257Q67 340 92 402T163 498T272 532Q369 532 420 465T471 282Q471
261 469 241ZM426 297Q426 388 388 440T274 493Q206 493 163 440T115 278H426V297ZM154 647L133 672L260 775H287L415 672L394 647L274 731L154 647Z" />
<glyph unicode="&#xeb;" glyph-name="edieresis" horiz-adv-x="533" d="M471 261T469 241H115Q120 134 166 82T286 30Q328 30 360 42T428 83L451 53Q413 21 373 5T284 -11Q183 -11 125 60T67 257Q67 340 92 402T163 498T272 532Q369 532 420 465T471 282Q471 261
469 241ZM426 297Q426 388 388 440T274 493Q206 493 163 440T115 278H426V297ZM199 732T208 723T218 699Q218 685 209 676T184 666Q169 666 160 675T150 699Q150 713 159 722T184 732Q199 732 208 723ZM380 732T389 723T399 699Q399 685 390 676T366 666Q351 666
342 675T332 699Q332 713 341 722T366 732Q380 732 389 723Z" />
<glyph unicode="&#xec;" glyph-name="igrave" horiz-adv-x="266" d="M156 522V0H110V522H156ZM54 776L238 676L223 648L33 732L54 776Z" />
<glyph unicode="&#xed;" glyph-name="iacute" horiz-adv-x="266" d="M156 522V0H110V522H156ZM207 776L228 732L38 648L23 676L207 776Z" />
<glyph unicode="&#xee;" glyph-name="icircumflex" horiz-adv-x="266" d="M156 522V0H110V522H156ZM12 647L-9 672L118 775H145L273 672L252 647L132 731L12 647Z" />
<glyph unicode="&#xef;" glyph-name="idieresis" horiz-adv-x="266" d="M156 522V0H110V522H156ZM57 732T66 723T76 699Q76 685 67 676T42 666Q27 666 18 675T8 699Q8 713 17 722T42 732Q57 732 66 723ZM238 732T247 723T257 699Q257 685 248 676T224 666Q209
666 200 675T190 699Q190 713 199 722T224 732Q238 732 247 723Z" />
<glyph unicode="&#xf0;" glyph-name="eth" horiz-adv-x="551" d="M400 602T439 512T479 285Q479 140 423 65T271 -11Q176 -11 122 54T67 232Q67 294 89 347T155 433T259 466Q356 466 427 381Q418 461 384 523T289 635L211 556L176 570L259 655Q201 690 134 704L144
742Q220 727 288 685L356 757L385 732L318 664Q400 602 439 512ZM347 29T389 95T432 288Q432 320 431 332Q359 427 265 427Q193 427 154 372T115 232Q115 135 156 82T271 29Q347 29 389 95Z" />
<glyph unicode="&#xf1;" glyph-name="ntilde" horiz-adv-x="583" d="M406 532T442 491T478 372V0H432V366Q432 432 406 463T328 494Q275 494 234 465T156 381V0H110V522H150L154 429Q228 532 335 532Q406 532 442 491ZM337 670T321 676T285 695Q255 714 238 714Q221
714 209 706T181 677L152 692Q189 752 238 752Q253 752 266 747T299 729Q317 719 329 714T355 708Q371 708 383 717T412 751L441 736Q409 670 355 670Q337 670 321 676Z" />
<glyph unicode="&#xf2;" glyph-name="ograve" horiz-adv-x="567" d="M386 532T443 462T500 263Q500 135 442 62T283 -11Q182 -11 125 61T67 260Q67 387 125 459T284 532Q386 532 443 462ZM205 492T160 433T115 260Q115 149 159 89T283 29Q362 29 407 89T452 263Q452
375 408 433T284 492Q205 492 160 433ZM205 776L389 676L374 648L184 732L205 776Z" />
<glyph unicode="&#xf3;" glyph-name="oacute" horiz-adv-x="567" d="M386 532T443 462T500 263Q500 135 442 62T283 -11Q182 -11 125 61T67 260Q67 387 125 459T284 532Q386 532 443 462ZM205 492T160 433T115 260Q115 149 159 89T283 29Q362 29 407 89T452 263Q452
375 408 433T284 492Q205 492 160 433ZM358 776L379 732L189 648L174 676L358 776Z" />
<glyph unicode="&#xf4;" glyph-name="ocircumflex" horiz-adv-x="567" d="M386 532T443 462T500 263Q500 135 442 62T283 -11Q182 -11 125 61T67 260Q67 387 125 459T284 532Q386 532 443 462ZM205 492T160 433T115 260Q115 149 159 89T283 29Q362 29 407 89T452
263Q452 375 408 433T284 492Q205 492 160 433ZM163 647L142 672L269 775H296L424 672L403 647L283 731L163 647Z" />
<glyph unicode="&#xf5;" glyph-name="otilde" horiz-adv-x="567" d="M386 532T443 462T500 263Q500 135 442 62T283 -11Q182 -11 125 61T67 260Q67 387 125 459T284 532Q386 532 443 462ZM205 492T160 433T115 260Q115 149 159 89T283 29Q362 29 407 89T452 263Q452
375 408 433T284 492Q205 492 160 433ZM324 670T308 676T272 695Q242 714 225 714Q208 714 196 706T168 677L139 692Q176 752 225 752Q240 752 253 747T286 729Q304 719 316 714T342 708Q358 708 370 717T399 751L428 736Q396 670 342 670Q324 670 308 676Z" />
<glyph unicode="&#xf6;" glyph-name="odieresis" horiz-adv-x="567" d="M386 532T443 462T500 263Q500 135 442 62T283 -11Q182 -11 125 61T67 260Q67 387 125 459T284 532Q386 532 443 462ZM205 492T160 433T115 260Q115 149 159 89T283 29Q362 29 407 89T452
263Q452 375 408 433T284 492Q205 492 160 433ZM208 732T217 723T227 699Q227 685 218 676T193 666Q178 666 169 675T159 699Q159 713 168 722T193 732Q208 732 217 723ZM389 732T398 723T408 699Q408 685 399 676T375 666Q360 666 351 675T341 699Q341 713 350
722T375 732Q389 732 398 723Z" />
<glyph unicode="&#xf7;" glyph-name="divide" horiz-adv-x="491" d="M263 155T274 144T286 115Q286 98 275 87T245 75Q228 75 217 86T205 115Q205 132 216 143T245 155Q263 155 274 144ZM263 586T274 575T286 546Q286 529 275 518T245 506Q228 506 217 517T205
546Q205 563 216 574T245 586Q263 586 274 575ZM72 310V352H419V310H72Z" />
<glyph unicode="&#xf8;" glyph-name="oslash" horiz-adv-x="567" d="M443 478T471 416T500 263Q500 135 442 62T283 -11Q247 -11 217 -2L176 -123L137 -112L180 14Q126 44 97 107T67 260Q67 387 125 459T284 532Q321 532 351 523L390 646L430 634L389 507Q443
478 471 416ZM115 103T197 52L340 484Q313 492 284 492Q205 492 160 433T115 260Q115 103 197 52ZM362 29T407 89T452 263Q452 419 372 469L229 37Q255 29 283 29Q362 29 407 89Z" />
<glyph unicode="&#xf9;" glyph-name="ugrave" horiz-adv-x="578" d="M468 0H429L426 97Q365 -11 253 -11Q182 -11 144 30T105 149V522H151V153Q151 89 179 59T262 29Q358 29 422 141V522H468V0ZM208 776L392 676L377 648L187 732L208 776Z" />
<glyph unicode="&#xfa;" glyph-name="uacute" horiz-adv-x="578" d="M468 0H429L426 97Q365 -11 253 -11Q182 -11 144 30T105 149V522H151V153Q151 89 179 59T262 29Q358 29 422 141V522H468V0ZM361 776L382 732L192 648L177 676L361 776Z" />
<glyph unicode="&#xfb;" glyph-name="ucircumflex" horiz-adv-x="578" d="M468 0H429L426 97Q365 -11 253 -11Q182 -11 144 30T105 149V522H151V153Q151 89 179 59T262 29Q358 29 422 141V522H468V0ZM166 647L145 672L272 775H299L427 672L406 647L286 731L166 647Z" />
<glyph unicode="&#xfc;" glyph-name="udieresis" horiz-adv-x="578" d="M468 0H429L426 97Q365 -11 253 -11Q182 -11 144 30T105 149V522H151V153Q151 89 179 59T262 29Q358 29 422 141V522H468V0ZM211 732T220 723T230 699Q230 685 221 676T196 666Q181 666 172
675T162 699Q162 713 171 722T196 732Q211 732 220 723ZM392 732T401 723T411 699Q411 685 402 676T378 666Q363 666 354 675T344 699Q344 713 353 722T378 732Q392 732 401 723Z" />
<glyph unicode="&#xfd;" glyph-name="yacute" horiz-adv-x="459" d="M261 -2Q240 -63 217 -100T156 -162T59 -201L53 -165Q104 -151 133 -132T180 -83T217 0H201L17 522H67L232 35L392 522H442L261 -2ZM304 776L325 732L135 648L120 676L304 776Z" />
<glyph unicode="&#xfe;" glyph-name="thorn" horiz-adv-x="576" d="M409 532T457 463T505 264Q505 136 454 63T309 -11Q261 -11 222 10T156 65V-194L110 -203V735L156 741V446Q186 487 226 509T316 532Q409 532 457 463ZM377 30T416 89T456 264Q456 493 310 493Q261
493 225 469T156 401V114Q183 74 219 52T302 30Q377 30 416 89Z" />
<glyph unicode="&#xff;" glyph-name="ydieresis" horiz-adv-x="459" d="M261 -2Q240 -63 217 -100T156 -162T59 -201L53 -165Q104 -151 133 -132T180 -83T217 0H201L17 522H67L232 35L392 522H442L261 -2ZM154 732T163 723T173 699Q173 685 164 676T139 666Q124
666 115 675T105 699Q105 713 114 722T139 732Q154 732 163 723ZM335 732T344 723T354 699Q354 685 345 676T321 666Q306 666 297 675T287 699Q287 713 296 722T321 732Q335 732 344 723Z" />
<glyph unicode="&#x2013;" glyph-name="endash" horiz-adv-x="520" d="M42 293V333H478V293H42Z" />
<glyph unicode="&#x2014;" glyph-name="emdash" horiz-adv-x="780" d="M42 293V333H738V293H42Z" />
<glyph unicode="&#x2018;" glyph-name="quoteleft" horiz-adv-x="215" d="M88 540T78 551T67 578Q67 593 79 619L132 737H164L127 609Q135 604 140 596T145 578Q145 562 135 551T106 540Q88 540 78 551Z" />
<glyph unicode="&#x2019;" glyph-name="quoteright" horiz-adv-x="215" d="M127 737T137 726T148 699Q148 684 136 658L83 540H51L88 668Q80 673 75 681T70 699Q70 715 80 726T109 737Q127 737 137 726Z" />
<glyph unicode="&#x201a;" glyph-name="quotesinglbase" horiz-adv-x="215" d="M127 64T137 53T148 26Q148 11 136 -15L83 -133H51L88 -5Q80 0 75 8T70 26Q70 42 80 53T109 64Q127 64 137 53Z" />
<glyph unicode="&#x201c;" glyph-name="quotedblleft" horiz-adv-x="359" d="M89 540T79 551T68 578Q68 593 80 619L133 737H165L128 609Q136 604 141 596T146 578Q146 562 136 551T107 540Q89 540 79 551ZM232 540T222 551T211 578Q211 593 223 619L276 737H308L271
609Q279 604 284 596T289 578Q289 562 279 551T250 540Q232 540 222 551Z" />
<glyph unicode="&#x201d;" glyph-name="quotedblright" horiz-adv-x="359" d="M127 737T137 726T148 699Q148 684 136 658L83 540H51L88 668Q80 673 75 681T70 699Q70 715 80 726T109 737Q127 737 137 726ZM270 737T280 726T291 699Q291 684 279 658L226 540H194L231
668Q223 673 218 681T213 699Q213 715 223 726T252 737Q270 737 280 726Z" />
<glyph unicode="&#x201e;" glyph-name="quotedblbase" horiz-adv-x="359" d="M127 64T137 53T148 26Q148 11 136 -15L83 -133H51L88 -5Q80 0 75 8T70 26Q70 42 80 53T109 64Q127 64 137 53ZM270 64T280 53T291 26Q291 11 279 -15L226 -133H194L231 -5Q223 0 218
8T213 26Q213 42 223 53T252 64Q270 64 280 53Z" />
<glyph unicode="&#x2022;" glyph-name="bullet" horiz-adv-x="274" d="M164 408T181 391T198 347Q198 321 181 304T137 287Q110 287 93 304T76 347Q76 373 93 390T137 408Q164 408 181 391Z" />
<glyph unicode="&#x2039;" glyph-name="guilsinglleft" horiz-adv-x="343" d="M237 514L266 495L128 288L266 81L237 62L77 272V303L237 514Z" />
<glyph unicode="&#x203a;" glyph-name="guilsinglright" horiz-adv-x="343" d="M106 514L266 303V272L106 62L77 81L215 288L77 495L106 514Z" />
</font>
</defs>
</svg>
